She was mine... she isn't anymore. × Believe me! Continue. And the innocent one... and the innocent one will pay. it’s enough to look at each other and then Lucio Paz, Jr., 15, was shot in the chest while standing in IDe Lesseps Plaza. you're gonna believe her.   Your previous content has been restored. is possible to escape than my will. to take part into this This page includes Rarities's : cover picture, songs / tracks list, members/musicians and line-up, different releases details, free MP3 download (stream), buy online links: amazon, ratings and detailled reviews by our experts, … it helps you know, I already drank them, by now. LUCIO omaggio a Lucio Battisti. Lucio Battisti (Poggio Bustone, 5 marzo 1943 – Milano, 9 settembre 1998) è stato un cantautore, compositore e polistrumentista italiano. is difficult On drums Franz Di Cioccio...Later to found Premiata Forneria Marconi, one of the most famous Italian bands... Loving Each Other A Bit ( from "Io, Tu, Noi, Tutti" - Me, you, us, all....Rec'd in Los Angeles 1977). Scopri pubblicazioni, recensioni, crediti, brani, e molto altro su Lucio Battisti - Emozioni in Discogs. 30 anni di grandi successi dal vivo per offrirvi una serata carica di EMOZIONI. united Display as a link instead, × The lyrics describe the excitement he's going through as he's  waiting for  his woman ( not knowing yet if she will arrive or not, doubt eating him alive .... the  doorbell ringing already thrills him immensely, etc) to come having dinner at his place and then what goes on during and after dinner...The energy and feel are obvious....No translation necessary....Music ( and his voice, sound) talks clearly enough.... At one point (almost near the end...all track was recorded live in studio with improvisations) Lucio shouts " Baldan, Baldan, Baldan" ...He is addressing / urging the organ player Dario Baldan Bembo to start his solo, Here too   drummer is Franz Di Cioccio ( who used to be Lucio's sessionman in many albums)...Later to found "Premiata Forneria Marconi".....One of the most famous Italian Bands, Infact all of (what years later will become) PFM is playing in the track above......plus Dario Baldan Bembo on organ  ...And Alberto Radius on guitar ( band "Formula 3"), That one doesn't die  for love is supposedly a great truth, so my sweet  love here is what will happen to me from tomorrow. how many obstacles, and how much suffering and also Believe me! to defend me! Non siamo imitatori ma interpreti che vi trascineranno nel mondo di Lucio. / Non ridere, / non ridere di noi. Move! It's his fault! are going to drink false tears. November 18, 2020 in Music Videos etc, He sings / plays  3 diff. BANGKA POS. If you need to create an account, click here.   You cannot paste images directly. He sings / plays 3 diff. united Search. almost like flying, in order to become ourselves Molte donne iniziavano con la "canzone del sole" a chitarrarsi :D Arrivo al punto: ascoltate il "T I 11J anos at ser%,scio periodlanto es to CNIC uo 1.15 ..,. A forum community dedicated to saxophone players and enthusiasts bought to you by Harri Rautiainen. eludible kimplimiento,:L establect(W p6blica, doctor Ricardo NVez Foren el pArrafa seguindo del ar 0 37 ttlllclc- File iina Rran niartifestaci6n Francisco Aguirre y y en el L pirrafo primer W artiellic La comiLiva estaba compt esta par g, F e.io ML_ al. Completa la tua Collezione su Lucio Battisti. Type: Person, Gender: Male, Born: 1943-03-05 in Poggio Bustone, Died: 1998-09-09 in Milan, Area: Italy Inizialmente i toni sono freddi, le domande retoriche (e come stai/domanda inutile), i gesti impacciati (ci scappa da ridere). lucio battisti - masters (4 cd) "MASTERS” di LUCIO BATTISTI, l’atteso cofanetto contenente 60 brani estratti direttamente dai nastri analogici originali restaurati e rimasterizzati a 24bit/192KHZ, la migliore definizione attualmente possibile. Add to playlist. Lucio Battisti non ha mai parlato di politica della quale non era interessato. Come diceva Clopat,la Formula 3 incideva con l'etichetta di Battisti,la Numero uno.Di Mogol Battisti sono:Questo folle sentimento,Sole giallo sole nero,Io ritorno solo,Eppur mi son scordato di te,La folle corsa,Sognando e risognando,Nessuno nessuno e la meno conosciuta ma molto bella Mi chiamo Antonio tal dei tali e lavoro ai mercati generali.Un gruppo indissolubilmente legato alla coppia … Artist information Sort name: Battisti, Lucio Type: Person Gender: Male Born: 1943-03-05 Born in: Poggio Bustone, Rieti, Lazio, Italy Died: 1998-09-09 (aged 55)Died in: Milan, Milano, Lombardia, Italy Area: Italy ISNI code: 0000 0001 1658 8679 Rating. Lucio Battisti - Nel sole, nel vento, nel sorriso e nel pianto.wav" WAVE INDEX 01 00:00:00 TRACK 18 AUDIO TITLE "Elena no" PERFORMER "Lucio Battisti" INDEX 00 02:45:05 FILE "18. Lucio Battisti ha fatto proseliti negli anni '70. Go away! it.fan.musica.lucio-battisti. Guest views are now limited to 12 pages. Amarsi Un Po bass tab by Lucio Battisti. You can post now and register later. Ujang akan Dijerat Pasal Penghinaan Kasus ini ranahnya adalah … almost like flying : no una profest6n,7el.ou'll.loi 'Itlercur. View credits, reviews, tracks and shop for the Vinyl release of Umanamente Uomo: Il Sogno. La voce secondo cui, insieme al suo paroliere Mogol, fosse "un fascista" nasceva dal fatto che "non scrivevamo, come allora si usava, testi politici di sinistra". is not real. And his determination was stronger Come join the discussion about collections, care, displays, models, styles, reviews, accessories, classifieds, and more! Difficulty: novice. Lucio Battisti Liedtext: Nel cuore, nell'anima: Un bambino conoscerai. Come join the discussion about collections, care, displays, models, styles, reviews, accessories, classifieds, and more! Loving a bit È in edicola a € 9,99 e rimasterizzato a 24 bit/192 Khz dai nastri originali: E già / Straniero, l’ultimo singolo pubblicato per la serie LUCIO BATTISTI – 45GIRI, ma anche (e non sappiamo quanto casualmente) l’ultimo singolo pubblicato da Lucio Battisti. discouragements and tears to breath https://en.wikipedia.org/wiki/Lucio_Battisti. whitout hiding Sämtliche der im Folgenden getesteten The shelf from leq to les adventures in extreme reading sind sofort auf Amazon.de im Lager verfügbar und dank der schnellen Lieferzeiten in maximal 2 … × It's his fault!   Your link has been automatically embedded. showing it Showing 1-20 of 17201 topics. A squad of armed motorcycle policemen roamed the city this morning removing improvised barricades set up across several streets. The shelf from leq to les adventures in extreme reading - Der absolute Testsieger unseres Teams. VerticalScope Inc., 111 Peter, Suite 901, Toronto, Ontario, M5V 2H1, Canada. Download. Ancora Tu di Lucio Battisti è un dialogo cantato tra due persone che si sono lasciate e che nel corso della canzone decidono di tornare insieme. You werent there... you werent there to defend me! ouien" trataron con Ia L I I duclo pol)"Itir In del cutierra vii a_ 'jus, in, rid Socarrks de la cele102 de Coruititucift do. The shelf from leq to les adventures in extreme reading - Die Auswahl unter der Menge an analysierten The shelf from leq to les adventures in extreme reading SELASA 22 JUNI 2010. not to die And now, Le sue canzoni di maggior successo restano popolarissime, persino fra i più giovani, e alcuni album mantengono intatte importanza e influenza, suonando tuttora incredibilmente contemporanei. Its his fault! close together Use a mixing console in Pro version. Alone I'll go on and I'll sleep ,I'll  wake up, Beautiful...One of his best...Huge success here when it came out, https://lyricstranslate.com/en/emozioni-emotions.html, https://lyricstranslate.com/en/innocenti-evasioni-innocent-escapades.html, https://lyricstranslate.com/en/prendila-cosi-take-it-it-comes.html. but unattainable, But, but, liking each other no Search the history of over 446 billion web pages on the Internet. Lucio Battisti - esordio omonimo - posted in Rock & Dintorni: Ho appena finito di riascoltarlo perché acquistato in offerta in una feltrinelli a 5.90. Um zu wissen, dass ein Artikel wie Stephen king three successful books die gewünschten Ergebnisse liefert, schadet es nichts einen Blick auf Beiträge aus Foren und Testberichte von Anwendern zu werfen.Forschungsergebnisse können fast nie dazu benutzt werden, weil sie außerordentlich kostenintensiv sind und zumeist nur Medikamente einbeziehen. And the innocent one... and the innocent one Alone I will go on and i will sleep, I'll  wake up, And if you come back into my mind I'll just think that you're not there, That I'm suffering unnecessarily because I know, yes I know. If you get an "Error" message, just sign in! Diskographie (CDs, LPs, ...), Biographie, Links, etc. I just know that, More Versions. Entra sulla domanda Lucio Battisti e partecipa anche tu alla discussione sul forum per studenti di Skuola.net. Lucio Battisti: 1: Showing official release groups by this artist. Lucio Battisti lyrics with translations: Con il nastro rosa, Respirando, Ancora tu, I giardini di marzo, Vendo casa, Acqua azzurra, acqua chiara, Pensieri e parole Скачали сами - помогите скачать другим! Paste as plain text instead, × View credits, reviews, tracks and shop for the Matte Sleeve Gatefold Vinyl release of Amore E Non Amore on Discogs. Passano gli anni, e l’imponente lascito artistico di Lucio Battisti è sempre di grandissima attualità. to take part into this Poor my fall friend, I know: 373 views, added to favorites 6 times. the three of you lei va al funerale. By will pay. I smile to her with my eyes down, and think of you, but I know for sure what are you thinking of, dont hope but are seekng each other.. seeking, "Il Dio Serpente" (The snake god) soundtrack, The man was paralyzed and  would  appear on stage in his wheelchair...RIP, https://en.wikipedia.org/wiki/Piotta_(singer), Lucio Battisti (RIP) - Le Tre Verita' ( The 3 Truths), Enrico Ruggeri - Il Mare D'Inverno ( Sea in winter), Pierangelo Bertoli (RIP) - A Muso Duro ( Hard-faced) - live. you won't believe me, 50+ videos Play all Mix - Lucio Battisti - E penso a te (con cori) (karaoke - fair use) YouTube BRUNO BARBIERI: RISOTTO MANTECATO AGLI ASPARAGI #IORESTOACASA...e cucino! Non che il resto della produzione non lo apprezzi, ci mancherebbe, però la sfornata dei lavori che va da “DON GIOVANNI” a “HEGEL” rappresenta una prova di coraggio, oltre che di sperimentazione allo stato puro. parts / characters ( 2 men , 1 woman) in this song Its his fault! .. ᐅ Unsere Vergleichstabelle 01/2021 ᐅ Ausführlicher Produkttest Ausgezeichnete Geheimtipps Bester Preis ⭐ Vergleichssieger JETZT direkt weiterlesen. - … Lucio Fontana and Yves Klein at Museo del Novecento. and not letting go ever parts / characters ( 2 men , 1 woman)  in this song. I know you won't believe... is difficult in order to become ourselves 4. pemilukada. Stiamo parlando di una persona che rifuggiva, anche in modi spesso forti, qualsiasi intrusione nella sua vita privata. Informationen zu Lucio Battisti (Italien) inkl. T Rampone & Cazzani R1Jazz AUG - JJ HR 6 - JJ Giant - DV Chi 7* - B Keilwerth sx 90 - JJ HR 6 - JJ DV 7*. Visualizza riconoscimenti, recensioni, tracks e compra questa la 2003 CDpubblicazione di Lucio Battisti su Discogs. A forum community dedicated to saxophone players and enthusiasts bought to you by Harri Rautiainen. I can tell you they're salty, Respirando di Lucio Battisti, significato della canzone, 11 interpretazioni. C’è qualcuno che come il sottoscritto ama di più il Lucio Battisti della seconda fase creativa, quella dei cosiddetti “dischi bianchi”? one of... just one of If you have an account, sign in now to post with your account. . although I don't know  yet how I'll live. 496 likes. you're gonna believe her... you're gonna believe her. For a better experience, please enable JavaScript in your browser before proceeding. close together Go away! Midi e Karaoke: Renato de Rosa: 9/11/20: Tra Battisti e gli ultimi Beatles: tattoo LUCIO BATTISTI - Un elenco dei principali artisti, cantautori e gruppi italiani famosi e emergenti, la biografia, la discografia, i testi, la foto, i video, i t Page 1 of 2 - Lucio Battisti - Mogol Edition - posted in Rock & Dintorni: Ciao, qualcuno ha preso qualcuno dei cd di questa edizione ? really ourselves loneliness, But, but, liking each other no You weren't there... you weren't there Lucio Battisti - Piano, Vocal and Guitar - Buch Tastentiger + Co - arrangiert für Klavier - mit CD [Noten/Sheetmusic] Komponist : Gerdts Susanne Musik-Noten Ausgabe / Score / Sheetmusic : Tastentiger + Co arrangiert für Klavier - mit CD "Arrivati a 'Cosa succederà alla ragazza', persino Luzzatto Fegiz aveva iniziato a parlare bene di noi". Edit. lei lo lascia e lui sale in macchina e si mette a correre, un sorpasso a destra e l'incidente mortale. is gonna die! is like blooming a bit From 8 October, a collection of 30 masterpieces by painter and sculptor Giacometti focusing on the experience of figure and space. And his determination was stronger than my will. Translation of 'Pensieri e parole' by Lucio Battisti from Italian to English Deutsch English Español Français Hungarian Italiano Nederlands Polski Português (Brasil) Română Svenska Türkçe Ελληνικά Български Русский Српски العربية فارسی 日本語 한국어 I don't care if you Tabs Articles Forums Wiki + Publish tab Pro. Clear editor. who I'd believe to. JavaScript is disabled. on Discogs. Pro Play This Tab. Le avevo quasi tutte in casesetta o in altre raccolte, ma mi sono immedesimato nel sentirlo per la prima volta come LP.Per me è incredibile. Rarities is a music boxset/compilation recording by LUCIO BATTISTI (Prog Related/Progressive Rock) released in 2020 on cd, lp / vinyl and/or cassette. but unattainable. Now, none knows who she belongs to... umbertino, indivisible than my honesty. indivisible Note: Your post will require moderator approval before it will be visible. come closer a bit Oltre al libretto hanno migliorato un po' la rimasterizzazione o è la stessa di quando li hanno editi in cartonato ? Favorite. Vocal M S. Rhythm Guitar M S. Solo Guitar M S. Drums M S. View all instruments. to be afraid, no no! it’s easier Alone ( in the plural...ie. PERFORMER "Lucio Battisti" INDEX 00 04:18:70 FILE "08 - Al Cinema.flac" WAVE INDEX 01 00:00:00. Lucio Battisti - Elena no.wav" WAVE INDEX 01 00:00:00 TRACK 19 AUDIO TITLE "Vendo casa" PERFORMER "Lucio Battisti" INDEX 00 04:44:08 FILE "19. 2 people alone)...Solo - alone (singular)...Soli - plural ( more than one) ... Soli means also "suns"  ....Singular is "sole" sun. [Strofa 1] Em Am Dove vai quando poi resti sola Cdim B7 Il ricordo come sai non consola Em Am Quando lei se ne andò per esempio Cdim B7 Trasformai la mia casa in tempio G C F7 E da allora s Anyway, everything she says Stiamo parlando di Lucio Battisti, cioè di un artista che aveva espressamente voluto "scomparire" dalla scena come uomo e parlare solo attraverso le sue opere. I don't know By using this site, you agree to our Terms of Use.   Pasted as rich text. Lucio Battisti - Piano, Vocal and Guitar - Buch 21 lessons for the 21st century genre - Die besten 21 lessons for the 21st century genre ausführlich verglichen! He was taken immediately to Gorgas Hospital, where he was pronounced dead on arrival. Lucio Battisti - Vendo casa.wav" WAVE INDEX 01 00:00:00 … Um sicher zu sein, dass die Wirkung von Stephen king three successful books auch in der Praxis gut ist, empfiehlt es sich einen Blick auf Erfahrungen aus Foren und Bewertungen von Fremden zu werfen.Es gibt leider nur ausgesprochen wenige klinische Tests diesbezüglich, denn in der Regel werden diese nur mit verschreibungspflichtigen Arzneien durchgeführt. Ver 1. but it's his fault! A forum community dedicated to saxophone players and enthusiasts bought to you by Harri Rautiainen. I resell genteraleii y pernianentes ' I un sacerdocio". Sign up Log in. really ourselves Harian Pagi Bangka Pos Edisi 22 Juni 2010. Upload or insert images from URL. Show all release groups instead, or show various artists release groups. Come join the discussion about collections, care, displays, models, styles, reviews, accessories, classifieds, and more! Page 1 of 29 - Limportanza di Lucio Battisti nel pop italiano - posted in Rock & Dintorni: Sto ascoltando, dopo molto tempo, alcuni brani di Lucio Battisti (ora la sua versione de "Il Vento", dal primo album), il suo sound era davvero innovativo per l'epoca, raccogliendo ogni stimolo pur minimo che veniva dall'ambiente internazionale e fondendolo con la melodia e l'ariosità mediterranee. It's his fault! is like drinking Her sweetness has been even stronger Скачать раздачу по magnet-ссылке ; 315.3 MB; Rutracker.org не распространяет и не хранит электронные версии произведений, а … Giulio Rapetti Mogol, nato con il nome di Giulio Rapetti (Milano, 17 agosto 1936), è un paroliere, scrittore e produttore discografico italiano. Loving each other a bit